<?xml version="1.0" standalone="no"?>
<!DOCTYPE svg PUBLIC "-//W3C//DTD SVG 1.1//EN" "http://www.w3.org/Graphics/SVG/1.1/DTD/svg11.dtd" >
<svg xmlns="http://www.w3.org/2000/svg">
<metadata></metadata>
<defs>
<font id="pier_sansregular" horiz-adv-x="1024" >
<font-face units-per-em="2048" ascent="1526" descent="-522" />
<missing-glyph horiz-adv-x="614" />
<glyph horiz-adv-x="0" />
<glyph horiz-adv-x="682" />
<glyph unicode=" "  horiz-adv-x="614" />
<glyph unicode="&#x09;" horiz-adv-x="614" />
<glyph unicode="&#xa0;" horiz-adv-x="614" />
<glyph unicode="!" horiz-adv-x="661" d="M205 1536h252l-21 -1155h-211zM215 76q0 47 34 80.5t81 33.5q49 0 82.5 -33t33.5 -81q0 -50 -33.5 -83.5t-82.5 -33.5q-48 0 -81.5 34t-33.5 83z" />
<glyph unicode="&#x22;" horiz-adv-x="866" d="M123 950l76 234q-35 19 -55.5 53t-20.5 76q0 59 41.5 100t99.5 41q61 0 103.5 -41t42.5 -100q0 -48 -25 -84l-192 -279h-70zM498 950l75 234q-75 42 -75 129q0 59 41 100t100 41q61 0 103 -41t42 -100q0 -49 -24 -84l-193 -279h-69z" />
<glyph unicode="#" horiz-adv-x="1980" d="M205 319v203h295l106 287h-211v203h285l121 329h213l-121 -329h373l123 329h213l-121 -329h295v-203h-369l-107 -287h285v-203h-358l-117 -319h-215l117 319h-373l-117 -319h-215l119 319h-221zM715 522h370l107 287h-373z" />
<glyph unicode="$" horiz-adv-x="1345" d="M102 233l152 152q50 -88 157.5 -146t221.5 -69v537q-169 52 -231 81q-162 77 -212 211q-29 79 -22 164.5t47 159.5q28 53 72.5 94.5t89.5 65t97 39.5t88.5 22t70.5 8v250h131v-254q139 -17 261 -82t216 -168l-149 -149q-108 156 -328 209v-496q9 -3 28 -8 q172 -51 246 -92q133 -74 181 -199q7 -17 15.5 -51.5t6 -108.5t-30.5 -139q-49 -115 -166.5 -188t-279.5 -90v-252h-131v246q-154 9 -291.5 75t-239.5 178zM396 1150q-4 -47 10 -87q8 -22 19 -39.5t30 -32.5t33 -25t43.5 -22.5t46 -18.5t55.5 -20v457q-25 -3 -51 -9.5 t-57.5 -20.5t-59.5 -39t-45 -58q-20 -38 -24 -85zM764 176q178 29 233 162q15 34 16 74t-4 61.5t-8 24.5q-10 28 -28 50.5t-35.5 37t-50 30t-55 24t-68.5 24.5v-488z" />
<glyph unicode="%" horiz-adv-x="1716" d="M61 1186q0 145 102 247.5t247 102.5q146 0 248 -102.5t102 -247.5t-102 -246.5t-248 -101.5q-145 0 -247 101.5t-102 246.5zM246 1186q0 -68 48 -116t116 -48q69 0 117 48t48 116t-48 117t-117 49q-67 0 -115.5 -49t-48.5 -117zM469 0l565 1536h213l-563 -1536h-215z M956 348q0 145 102 246.5t247 101.5q146 0 248 -101.5t102 -246.5t-102 -247.5t-248 -102.5q-145 0 -247 102.5t-102 247.5zM1141 348q0 -69 48 -117.5t116 -48.5q69 0 117 48.5t48 117.5q0 68 -48 116t-117 48q-67 0 -115.5 -48t-48.5 -116z" />
<glyph unicode="&#x26;" horiz-adv-x="1509" d="M61 506q0 146 68.5 270t185.5 197q-82 101 -82 233q0 150 103.5 249t251.5 99q149 0 251.5 -98.5t102.5 -249.5q0 -130 -80 -233q-37 -51 -117 -92q-45 -20 -63 -25l358 -401q45 87 58 163l209 -36q-22 -118 -78 -228q-11 -26 -39 -67l258 -287h-289l-108 123 q-89 -79 -193.5 -111t-271.5 -32q-144 1 -264 69t-190.5 188.5t-70.5 268.5zM272 506q0 -136 92 -226t224 -90q98 0 175.5 19.5t145.5 73.5l-465 520q-78 -42 -125 -122t-47 -175zM444 1186q0 -64 42.5 -110t101.5 -46q60 0 101.5 45.5t41.5 110.5t-41.5 110t-101.5 45 q-59 0 -101.5 -45.5t-42.5 -109.5z" />
<glyph unicode="'" horiz-adv-x="512" d="M123 950l76 234q-35 19 -55.5 53t-20.5 76q0 59 41.5 100t99.5 41q61 0 103.5 -41t42.5 -100q0 -48 -25 -84l-192 -279h-70z" />
<glyph unicode="(" horiz-adv-x="753" d="M164 674q0 682 495 1028l95 -166q-27 -20 -58 -47t-90.5 -103t-103.5 -165.5t-78.5 -235.5t-34.5 -311q0 -120 18 -231t45 -191t65.5 -153t71.5 -118.5t71.5 -85.5t57.5 -55.5t36 -27.5l-95 -168q-495 349 -495 1030z" />
<glyph unicode=")" horiz-adv-x="794" d="M0 -188q17 12 36 27.5t57.5 55.5t71.5 85.5t71.5 118.5t65.5 153t45 191t18 231q0 165 -34.5 311t-78.5 235.5t-103.5 165.5t-90.5 103t-58 47l94 166q496 -347 496 -1028q0 -680 -496 -1030z" />
<glyph unicode="*" horiz-adv-x="655" d="M102 1165v123h119l-59 105l106 61l60 -104l59 104l107 -61l-60 -105h119v-123h-119l60 -102l-107 -62l-59 103l-60 -103l-106 62l59 102h-119z" />
<glyph unicode="+" horiz-adv-x="1118" d="M184 420v172h279v278h172v-278h278v-172h-278v-279h-172v279h-279z" />
<glyph unicode="," horiz-adv-x="389" d="M82 129q0 59 41 100t100 41q61 0 103.5 -41t42.5 -100q0 -48 -25 -84l-192 -278h-70l76 233q-35 19 -55.5 53t-20.5 76z" />
<glyph unicode="-" horiz-adv-x="1097" d="M184 444v172h729v-172h-729z" />
<glyph unicode="." horiz-adv-x="534" d="M123 125q0 59 41.5 100t101.5 41q61 0 103.5 -41t42.5 -100q0 -61 -42 -103t-104 -42q-60 0 -101.5 42t-41.5 103z" />
<glyph unicode="/" horiz-adv-x="737" d="M-20 0l565 1536h213l-563 -1536h-215z" />
<glyph unicode="0" horiz-adv-x="1259" d="M102 498v538q3 221 156 369.5t371 148.5t370.5 -148.5t155.5 -369.5h2v-538h-2q-3 -222 -155 -370t-371 -148q-143 0 -263 66.5t-191 185.5t-73 266zM313 506q0 -136 92 -226t224 -90t223.5 90t91.5 226v522q0 136 -91.5 224.5t-223.5 88.5q-133 0 -224.5 -88.5 t-91.5 -224.5v-522z" />
<glyph unicode="1" horiz-adv-x="722" d="M102 1348v188h457v-1536h-227v1348h-230z" />
<glyph unicode="2" horiz-adv-x="1261" d="M164 0v188q162 112 330 273q87 82 130 123.5t97 99t90 104.5q61 83 88 145t27 130q0 115 -56 186q-30 39 -77 62t-72.5 27.5t-40.5 4.5q-95 4 -166 -51q-101 -68 -135 -200l-207 45q7 32 19.5 66.5t36.5 83.5t67.5 97.5t99.5 85.5q139 92 293 86q19 -1 39 -3.5t63 -13.5 t81 -28t84.5 -50.5t82.5 -78.5q101 -128 101 -319q0 -95 -43 -205q-43 -100 -115 -196q-96 -128 -342 -357q-74 -71 -133 -117h596v-188h-938z" />
<glyph unicode="3" horiz-adv-x="1167" d="M20 203l205 88q98 -98 236 -98q144 0 239 82.5t95 230.5q0 136 -97.5 234t-236.5 98h-162l373 508h-473v190h845l-382 -522q154 -61 250 -199.5t96 -308.5q0 -148 -73.5 -269.5t-199 -189t-274.5 -67.5q-133 0 -249.5 60t-191.5 163z" />
<glyph unicode="4" horiz-adv-x="1171" d="M82 408v165l702 963h244v-940h123v-188h-123v-408h-227v408h-719zM367 596h434v616z" />
<glyph unicode="5" horiz-adv-x="1136" d="M98 203l170 127q75 -114 211 -133q131 -19 235 56t124 210q20 136 -59 246t-208 129q-109 15 -198 -43q-4 -2 -12.5 -7.5t-12.5 -7.5h-203v756h754v-188h-526v-320q114 36 229 19q142 -19 252 -108.5t162.5 -224.5t32.5 -282q-21 -146 -109 -255.5t-218 -160t-273 -30.5 q-107 15 -197.5 72t-153.5 145z" />
<glyph unicode="6" horiz-adv-x="1259" d="M102 506q0 147 74 276l424 754h244l-275 -487q20 4 62 4q143 0 264 -73t191.5 -199t70.5 -275q0 -148 -70.5 -268.5t-191 -188t-264.5 -67.5t-265 67.5t-192.5 188.5t-71.5 268zM315 506q0 -135 92 -224t224 -89t223.5 89t91.5 224q0 138 -92.5 237t-222.5 99t-223 -99 t-93 -237z" />
<glyph unicode="7" horiz-adv-x="1187" d="M82 0l756 1348h-756v188h1106l-856 -1536h-250z" />
<glyph unicode="8" horiz-adv-x="1218" d="M82 504q0 144 67.5 258.5t186.5 189.5q-80 99 -80 234q0 153 103.5 260.5t250.5 107.5q146 0 250.5 -108t104.5 -260q0 -133 -82 -234q119 -74 186.5 -188.5t67.5 -259.5q0 -147 -71 -268t-191.5 -188.5t-264.5 -67.5t-265 67.5t-192 188.5t-71 268zM295 504 q0 -135 91.5 -224.5t223.5 -89.5t224 89.5t92 224.5q0 136 -92 225.5t-224 89.5t-223.5 -89.5t-91.5 -225.5zM467 1186q0 -65 41.5 -110.5t101.5 -45.5q59 0 101.5 46t42.5 110t-42.5 109.5t-101.5 45.5q-60 0 -101.5 -45t-41.5 -110z" />
<glyph unicode="9" horiz-adv-x="1239" d="M102 1030q0 148 71 269t191.5 189t264.5 68t265 -68t192 -189t71 -269q0 -145 -72 -276l-426 -754h-241l272 487q-40 -4 -61 -4q-143 0 -264.5 73.5t-192 199.5t-70.5 274zM313 1030q0 -138 92.5 -236t223.5 -98q130 0 222.5 98t92.5 236q0 136 -91.5 224.5t-223.5 88.5 q-133 0 -224.5 -88.5t-91.5 -224.5z" />
<glyph unicode=":" horiz-adv-x="493" d="M102 125q0 59 42 100t102 41q61 0 103 -41t42 -100q0 -61 -41.5 -103t-103.5 -42q-60 0 -102 42t-42 103zM102 784q0 59 42 100.5t102 41.5q61 0 103 -41.5t42 -100.5q0 -62 -41.5 -103.5t-103.5 -41.5q-60 0 -102 42t-42 103z" />
<glyph unicode=";" horiz-adv-x="493" d="M102 784q0 59 42 100.5t102 41.5q61 0 103 -41.5t42 -100.5q0 -62 -41.5 -103.5t-103.5 -41.5q-60 0 -102 42t-42 103zM104 129q0 58 41.5 99.5t100.5 41.5q61 0 103 -41t42 -100q0 -49 -24 -84l-193 -278h-70l76 233q-35 19 -55.5 53t-20.5 76z" />
<glyph unicode="&#x3c;" horiz-adv-x="991" d="M123 508v129l745 508v-213l-536 -361l536 -358v-213z" />
<glyph unicode="=" horiz-adv-x="1118" d="M184 258v172h729v-172h-729zM184 588v172h729v-172h-729z" />
<glyph unicode="&#x3e;" horiz-adv-x="991" d="M123 0v213l536 358l-536 361v213l745 -508v-129z" />
<glyph unicode="?" horiz-adv-x="1124" d="M102 1104q12 157 115 278q101 113 252 154q89 21 154 14q74 -4 141 -28q112 -41 188 -129q78 -91 103 -217q17 -103 -11 -203q-15 -58 -47.5 -109t-56.5 -75.5t-70 -65.5q-33 -29 -54 -49.5t-46.5 -54t-42.5 -72.5q-46 -101 -43 -225h-213q-3 170 61 313q20 44 47 80 t48 55t53.5 46t48.5 42q38 38 52 53t32.5 45.5t26.5 63.5q15 56 4 121q-12 76 -53 129q-66 85 -183 92q-147 0 -229 -105q-55 -70 -66 -174zM465 76q0 47 34 80.5t81 33.5q49 0 82.5 -33t33.5 -81q0 -50 -33.5 -83.5t-82.5 -33.5q-48 0 -81.5 34t-33.5 83z" />
<glyph unicode="@" horiz-adv-x="2004" d="M102 512q0 161 68 322q65 148 176 268q113 116 250 192q141 76 295 101q123 17 262 0q120 -18 223 -60q137 -59 236 -145q140 -122 213 -293q58 -133 73 -301q14 -200 -28 -381q-43 -193 -137 -296t-209 -103q-75 0 -134.5 26t-91.5 64.5t-48.5 76t-16.5 66.5v4 q-54 -43 -126 -70.5t-144 -27.5q-143 0 -264.5 73.5t-192 199.5t-70.5 274t70.5 273.5t192 198.5t264.5 73q138 0 270 -97v58h213v-824q0 -20 1.5 -40.5t8 -58.5t24 -61.5t44.5 -23.5q44 0 83 22.5t63 52.5t43 68.5t26.5 60.5t11.5 38q39 167 25 344q-27 320 -246 512 q-53 46 -114.5 80.5t-114 54t-113.5 30.5t-99 14.5t-86 2.5t-59.5 -2.5t-32.5 -3.5q-135 -21 -256 -88q-129 -71 -219 -168q-95 -101 -153 -232q-58 -138 -58 -276q-3 -148 60 -295q58 -137 168 -250q115 -118 268 -184q155 -67 334 -70q61 0 141 17q56 14 121 47l57 -111 q-67 -36 -149 -55q-79 -21 -164 -21h-6q-200 3 -383 80q-167 71 -305 209q-130 133 -195 291q-73 172 -70 344zM649 502q0 -155 92.5 -264t221.5 -109q86 0 158 49t112 133q45 85 45 191q0 105 -45 190q-40 83 -112.5 132.5t-157.5 49.5q-129 0 -221.5 -109t-92.5 -263z" />
<glyph unicode="A" horiz-adv-x="1421" d="M0 0l631 1536h139l631 -1536h-246l-154 401h-604l-151 -401h-246zM469 590h461l-230 606z" />
<glyph unicode="B" horiz-adv-x="1433" d="M205 0v1536h608q155 0 264 -114.5t109 -274.5q0 -168 -117 -285q93 -64 147 -167t54 -224q0 -195 -134 -333t-323 -138h-608zM432 188h381q95 0 162 83t67 200q0 114 -64 196t-155 87h-10h-381v-566zM432 942h381h6q58 4 98.5 64.5t40.5 140.5q0 82 -42.5 141.5 t-102.5 59.5h-381v-406z" />
<glyph unicode="C" horiz-adv-x="1574" d="M102 768q0 163 61.5 309.5t166.5 250.5t249 165t304 61q170 0 317 -59t252 -176l-149 -150q-66 95 -178.5 146t-241.5 51q-116 0 -219.5 -49.5t-176 -131.5t-115 -191t-42.5 -226q0 -109 39.5 -215.5t109 -192.5t175.5 -139t229 -53q78 0 155 19t150 64.5t112 110.5 l150 -149q-104 -115 -250.5 -174t-316.5 -59q-160 0 -304 61t-249 165.5t-166.5 251t-61.5 310.5z" />
<glyph unicode="D" horiz-adv-x="1622" d="M164 0v1536h598q150 -1 286.5 -62t235.5 -164t157 -244.5t58 -297.5t-58 -298t-157 -244.5t-235.5 -163.5t-286.5 -62h-598zM391 188h367q102 0 195.5 42.5t164.5 123.5q154 174 154 414q0 116 -40 223t-114 189q-72 81 -165 124.5t-195 43.5h-367v-1160z" />
<glyph unicode="E" horiz-adv-x="1347" d="M184 0v1536h1022v-188h-794v-455h649v-191h-649v-514h833v-188h-1061z" />
<glyph unicode="F" horiz-adv-x="1306" d="M184 0v1536h1020v-188h-792v-480h649v-188h-649v-680h-228z" />
<glyph unicode="G" horiz-adv-x="1785" d="M82 768q0 218 105 399t284 284t391 103q172 0 319 -59.5t251 -175.5l-150 -150q-87 97 -188.5 147t-231.5 50q-161 0 -288 -80t-195 -215.5t-68 -302.5q0 -109 39 -215.5t108 -192.5t175 -139t229 -53q247 0 387 158q133 148 160 346h-391v188h624v-860h-227v197 q-104 -107 -246.5 -162t-306.5 -55q-159 0 -303 61t-248.5 165.5t-166.5 251t-62 310.5z" />
<glyph unicode="H" horiz-adv-x="1505" d="M143 0v1536h228v-674h723v674h227v-1536h-227v674h-723v-674h-228z" />
<glyph unicode="I" horiz-adv-x="636" d="M184 0v1536h228v-1536h-228z" />
<glyph unicode="J" horiz-adv-x="1265" d="M123 485h227q0 -317 275 -317q55 0 98.5 13.5t71 32.5t47.5 50.5t29.5 56.5t15 61.5t6 55.5t0.5 47v1051h229v-1051q0 -78 -15 -148t-51.5 -136.5t-92 -114.5t-142.5 -77t-196 -29t-196.5 29t-143.5 77t-93.5 114.5t-53 136.5t-15.5 148z" />
<glyph unicode="K" horiz-adv-x="1687" d="M205 0v1536h227v-700l819 700h334l-756 -635l756 -901h-317l-613 756l-223 -187v-569h-227z" />
<glyph unicode="L" horiz-adv-x="1226" d="M143 0v1536h228v-1348h774v-188h-1002z" />
<glyph unicode="M" horiz-adv-x="2115" d="M164 0v1536h31h243l609 -1188l608 1188h243h33v-1536h-227v1153l-592 -1153h-129l-592 1153v-1153h-227z" />
<glyph unicode="N" horiz-adv-x="1716" d="M205 0v1536h274l826 -1223v1223h227v-1536h-275l-823 1223v-1223h-229z" />
<glyph unicode="O" horiz-adv-x="1703" d="M61 768q0 164 62 310.5t167 250.5t249 164.5t303 60.5t303 -60.5t248.5 -164.5t166.5 -250.5t62 -310.5t-62 -310.5t-166.5 -251t-248.5 -165.5t-303 -61t-303 61t-249 165.5t-167 251t-62 310.5zM289 768q0 -157 69.5 -293.5t198 -221.5t285.5 -85q119 0 223.5 50 t176 132.5t112.5 191.5t41 226q0 116 -41.5 224.5t-113 191t-176 132.5t-222.5 50t-222.5 -50t-176 -132.5t-113 -191t-41.5 -224.5z" />
<glyph unicode="P" horiz-adv-x="1445" d="M184 0v1536h598q147 -1 271.5 -76.5t197 -205.5t72.5 -283t-72.5 -283t-197 -205.5t-271.5 -76.5h-368v-406h-230zM414 594h364q132 0 225 110.5t93 266.5t-93 266.5t-225 110.5h-364v-754z" />
<glyph unicode="Q" horiz-adv-x="1830" d="M123 768q0 164 61.5 310.5t166 250.5t248.5 164.5t304 60.5q159 0 303 -60.5t248.5 -164.5t166.5 -250.5t62 -310.5q0 -148 -49.5 -283t-138.5 -243l213 -228l-139 -129l-211 228q-176 -133 -455 -133q-160 0 -304 61t-248.5 165.5t-166 251t-61.5 310.5zM350 768 q0 -110 39 -216.5t108.5 -192.5t175.5 -138.5t230 -52.5q200 0 318 92l-232 250l139 129l220 -240q106 161 106 369q0 157 -69 293t-197 220.5t-285 84.5q-119 0 -223.5 -49.5t-176 -132t-112.5 -191t-41 -225.5z" />
<glyph unicode="R" horiz-adv-x="1425" d="M164 0v446v189v713v188h227h369q149 -1 273.5 -72t197 -196t72.5 -277q0 -172 -90.5 -306.5t-239.5 -197.5l330 -487h-252l-301 446h-359v-446h-227zM391 635h367q133 0 225 101t92 255q0 153 -92.5 255t-224.5 102h-367v-713z" />
<glyph unicode="S" horiz-adv-x="1386" d="M102 233l152 152q53 -94 173 -155.5t245 -61.5q255 3 325 170q15 34 16 74t-4 61.5t-8 24.5q-6 18 -15.5 33.5t-18 27.5t-25.5 24.5t-26.5 20t-33 18t-33.5 15.5t-40.5 15t-41 13.5t-47.5 14.5t-48 14q-16 5 -57 17t-59.5 17.5t-57 18.5t-58.5 21.5t-53 24t-52 29 t-44.5 33.5t-41.5 40.5t-32 47t-27 56.5q-23 64 -23 131q0 16 1 34q7 86 47 159q33 63 90.5 110t110.5 69t115 35t90.5 15t50.5 2q166 0 313 -67.5t256 -188.5l-149 -149q-65 95 -179.5 156t-240.5 61q-8 0 -21 -1t-48 -8t-65.5 -19t-64 -39t-53.5 -64q-20 -38 -24 -85 q-1 -10 -1 -21q0 -35 11 -66q18 -50 65 -85.5t86 -50t138 -43.5q7 -2 10.5 -3.5t10 -3t11.5 -3.5q18 -5 58.5 -17t61 -18t57.5 -18.5t58.5 -22t54 -24.5t52.5 -29t45.5 -34.5t42.5 -41.5t34 -48.5t28 -57.5q7 -17 15 -51q7 -27 7 -77q-1 -15 -1 -32q-2 -74 -30 -139 q-55 -130 -199.5 -206t-338.5 -78q-165 0 -313 67t-257 186z" />
<glyph unicode="T" horiz-adv-x="1177" d="M0 1348v188h1178v-188h-476v-1348h-227v1348h-475z" />
<glyph unicode="U" horiz-adv-x="1499" d="M143 602v934h228v-934q0 -26 2 -53.5t11 -72.5t24 -84t44.5 -81.5t69.5 -73t102 -50t138 -19.5t138 20t101.5 49.5t68.5 72.5t43.5 82t23.5 84.5t10.5 72t1.5 53.5v934h227v-934q0 -58 -6.5 -113t-25 -118.5t-47.5 -118t-77 -105.5t-110.5 -87.5t-151.5 -58t-196 -21.5 t-196.5 21.5t-152 58t-111.5 87.5t-78 105.5t-48 118t-26 119t-7 112.5z" />
<glyph unicode="V" horiz-adv-x="1353" d="M20 1536h244l414 -1130l412 1130h243l-592 -1536h-129z" />
<glyph unicode="W" horiz-adv-x="2109" d="M0 1536h242l366 -1083l387 1083h117l387 -1083l367 1083h243l-546 -1536h-117l-391 1079l-391 -1079h-117z" />
<glyph unicode="X" horiz-adv-x="1452" d="M61 0l535 766l-535 770h267l397 -575l401 575h265l-535 -770l533 -766h-265l-397 573l-399 -573h-267z" />
<glyph unicode="Y" horiz-adv-x="1411" d="M-20 1536h276l469 -717l471 717h277l-633 -926v-610h-228v610z" />
<glyph unicode="Z" horiz-adv-x="1525" d="M205 0v233l876 1115h-876v188h1009h107v-233l-879 -1115h879v-188h-1116z" />
<glyph unicode="[" horiz-adv-x="620" d="M164 -352v2240h457v-188h-230v-1864h230v-188h-457z" />
<glyph unicode="\" horiz-adv-x="737" d="M-20 1536h213l565 -1536h-215z" />
<glyph unicode="]" horiz-adv-x="620" d="M0 -164h229v1864h-229v188h457v-2240h-457v188z" />
<glyph unicode="^" d="M176 1196l219 340h234l219 -340h-176l-160 197l-160 -197h-176z" />
<glyph unicode="_" d="M-6 -102h1036v-172h-1036v172z" />
<glyph unicode="`" d="M315 1434l199 102l178 -340h-176z" />
<glyph unicode="a" horiz-adv-x="1093" d="M82 297q0 91 32 159t87 107t121 57.5t143 18.5h287v68q0 151 -197 151q-71 0 -135 -35t-107 -96l-145 131q74 82 174 128t213 46q104 0 185.5 -29t128.5 -77.5t70.5 -104t23.5 -114.5v-707h-211v111q-50 -68 -131 -98.5t-156 -30.5q-171 0 -277 89t-106 226zM295 289 q17 -135 199 -135q133 0 195.5 49t62.5 112v152h-258q-97 0 -153 -47q-48 -40 -48 -106q0 -12 2 -25z" />
<glyph unicode="b" horiz-adv-x="1218" d="M129 0v1536h211v-604q51 42 134.5 70t156.5 28q218 0 362 -150t144 -376t-144 -375t-362 -149q-74 0 -152.5 26t-138.5 70v-76h-211zM295 504q0 -106 45 -191q40 -80 110.5 -120.5t159.5 -40.5q132 0 224 100t92 252q0 153 -91.5 252.5t-224.5 99.5q-89 0 -159.5 -40 t-110.5 -120q-45 -88 -45 -192z" />
<glyph unicode="c" horiz-adv-x="1056" d="M61 504q0 148 71 269t191.5 189t264.5 68q248 0 387 -153l-146 -132q-82 111 -241 111q-133 0 -224.5 -99.5t-91.5 -252.5q0 -152 92 -252t224 -100q160 0 241 112l146 -131q-139 -153 -387 -153q-144 0 -264.5 67.5t-191.5 188.5t-71 268z" />
<glyph unicode="d" horiz-adv-x="1255" d="M82 504q0 226 144 376t362 150q74 0 156.5 -28t134.5 -70v604h213v-1536h-213v76q-60 -44 -138 -70t-153 -26q-218 0 -362 149t-144 375zM295 504q0 -152 91 -252t222 -100q89 0 160.5 41t110.5 120q45 85 45 191q0 104 -45 192q-39 79 -110.5 119.5t-160.5 40.5 q-131 0 -222 -99.5t-91 -252.5z" />
<glyph unicode="e" horiz-adv-x="1159" d="M61 504q0 230 138.5 378t369.5 148q428 0 500 -428q8 -44 8 -98v-76h-796q0 -54 19.5 -100t51.5 -77.5t72.5 -54.5t83 -33.5t82.5 -10.5q73 0 145.5 36.5t114.5 96.5l145 -131q-59 -80 -153.5 -127t-251.5 -47q-242 0 -385.5 147t-143.5 377zM285 602h571 q0 119 -82.5 186.5t-204.5 67.5q-119 0 -201.5 -71.5t-82.5 -182.5z" />
<glyph unicode="f" horiz-adv-x="761" d="M102 840v172h123v102q0 128 9 177t53 120q88 145 293 145q69 0 120 -30v-164q-42 19 -82 19q-33 0 -65 -13q-52 -23 -75.5 -50t-32.5 -71.5t-9 -132.5v-102h264v-172h-264v-840h-211v840h-123z" />
<glyph unicode="g" horiz-adv-x="1245" d="M74 506q0 226 144 376t362 150q74 0 152 -26.5t138 -71.5v78h211v-1028q0 -148 -70.5 -273.5t-191.5 -198.5t-264 -73q-112 0 -211.5 46.5t-173.5 127.5l145 131q43 -62 106 -97.5t134 -35.5q130 0 222.5 109.5t92.5 263.5v94q-51 -41 -133.5 -68.5t-156.5 -27.5 q-218 0 -362 149t-144 375zM285 506q0 -152 91.5 -252t223.5 -100q89 0 159.5 40.5t110.5 120.5q45 85 45 191q0 104 -45 192q-40 80 -110.5 120t-159.5 40q-132 0 -223.5 -99.5t-91.5 -252.5z" />
<glyph unicode="h" horiz-adv-x="1222" d="M143 0v1536h211v-688q22 67 104 120.5t173 59.5q27 2 53 2q176 0 278 -95q118 -109 117 -351v-584h-211v563q0 156 -54 225.5t-183 69.5q-141 0 -209 -86.5t-68 -228.5v-543h-211z" />
<glyph unicode="i" horiz-adv-x="538" d="M143 1382q0 47 34 81t81 34q49 0 83 -33.5t34 -81.5q0 -49 -33.5 -82.5t-83.5 -33.5q-48 0 -81.5 33.5t-33.5 82.5zM154 0v1012h211v-1012h-211z" />
<glyph unicode="j" horiz-adv-x="610" d="M-41 -221q42 -19 82 -19q33 0 65 13q73 33 95 88t22 186v965h211v-965q0 -99 -2 -136t-15 -84t-44 -97q-87 -146 -293 -146q-69 0 -121 31v164zM215 1382q0 48 34 81.5t83 33.5q47 0 80.5 -34t33.5 -81q0 -49 -33 -82.5t-81 -33.5q-50 0 -83.5 33.5t-33.5 82.5z" />
<glyph unicode="k" horiz-adv-x="1142" d="M143 0v1536h213v-879l408 355h328l-471 -394l501 -618h-272l-383 489l-111 -94v-395h-213z" />
<glyph unicode="l" horiz-adv-x="540" d="M143 0v1575h213v-1575h-213z" />
<glyph unicode="m" horiz-adv-x="1845" d="M117 0v1012h211v-164q22 68 99 121t167 59q27 2 51 2q268 0 352 -217q30 98 115.5 153t183.5 62q26 2 50 2q176 0 276 -95q114 -108 113 -351v-584h-211v563q0 158 -50 226.5t-178 68.5q-241 0 -264 -274v-584h-213l2 8v555q0 158 -50 226.5t-177 68.5q-140 0 -203 -85.5 t-63 -229.5v-543h-211z" />
<glyph unicode="n" horiz-adv-x="1216" d="M123 0v1012h211v-164q22 67 103.5 120.5t172.5 59.5q27 2 53 2q175 0 278 -95q118 -109 118 -351v-584h-211v563q0 156 -54.5 225.5t-183.5 69.5q-141 0 -208.5 -86t-67.5 -229v-543h-211z" />
<glyph unicode="o" horiz-adv-x="1236" d="M82 504q0 148 70.5 269t191 189t264.5 68t264.5 -68t191.5 -189t71 -269q0 -147 -71 -268t-191.5 -188.5t-264.5 -67.5t-264.5 67.5t-191 188t-70.5 268.5zM293 504q0 -152 91.5 -252t223.5 -100t224 100t92 252q0 153 -91.5 252.5t-224.5 99.5q-132 0 -223.5 -99.5 t-91.5 -252.5z" />
<glyph unicode="p" horiz-adv-x="1214" d="M102 -522v1534h211v-80q60 45 138.5 71.5t152.5 26.5q218 0 363 -150t145 -376t-145 -375t-363 -149q-74 0 -157 27.5t-134 68.5v-598h-211zM270 504q0 -103 43 -191q40 -80 111 -120.5t160 -40.5q132 0 223.5 100t91.5 252q0 153 -91.5 252.5t-223.5 99.5 q-89 0 -160 -40.5t-111 -121.5q-43 -88 -43 -190z" />
<glyph unicode="q" horiz-adv-x="1255" d="M82 504q0 226 144 376t362 150q75 0 153 -26t138 -72v80h213v-1534h-213v598q-51 -41 -133.5 -68.5t-157.5 -27.5q-218 0 -362 149t-144 375zM293 504q0 -152 91.5 -252t223.5 -100q89 0 160 40.5t111 120.5q45 85 45 191q0 105 -45 190q-40 81 -111 121.5t-160 40.5 q-132 0 -223.5 -99.5t-91.5 -252.5z" />
<glyph unicode="r" horiz-adv-x="731" d="M123 0v1012h211v-144q19 70 91 116t163 46q87 0 143 -31l-45 -165q-12 7 -41.5 14.5t-54.5 7.5q-84 0 -143 -51t-86 -133t-27 -187v-485h-211z" />
<glyph unicode="s" horiz-adv-x="962" d="M90 133l137 137q85 -110 230 -110q75 0 132.5 25t74.5 65q5 13 6 27.5t0 24.5t-2 19l-2 9q-5 13 -13.5 23t-23.5 18.5t-25.5 14t-35 12.5t-35.5 9.5t-42 9.5t-42 9q-65 15 -104 26.5t-89 35t-83 60t-52 87.5q-17 47 -17 95q0 68 35 136q24 44 63.5 77t77 49t79.5 25.5 t62.5 11t35.5 1.5q106 0 202 -38.5t166 -110.5l-137 -138q-82 107 -231 107q-5 0 -14.5 -0.5t-31.5 -4.5t-42 -11t-40 -21t-30 -33q-14 -24 -14 -49q0 -17 6 -35q13 -36 59.5 -55t132.5 -39q13 -3 19 -4q49 -11 69 -16.5t63 -18.5t65.5 -26t52.5 -33.5t49.5 -48t32.5 -62.5 q18 -53 18 -104q0 -57 -23 -111q-40 -91 -139.5 -144.5t-230.5 -53.5h-2q-104 0 -198.5 40.5t-168.5 112.5z" />
<glyph unicode="t" horiz-adv-x="782" d="M61 840v172h123v319h211v-319h264v-172h-264v-398q0 -131 22 -186t95 -88q32 -13 65 -13q40 0 82 19v-164q-51 -30 -120 -30q-203 0 -293 145q-43 72 -52.5 128.5t-9.5 188.5v398h-123z" />
<glyph unicode="u" horiz-adv-x="1208" d="M109 428v584h210v-563q0 -156 54.5 -225.5t183.5 -69.5q141 0 209 86.5t68 228.5v543h210v-1012h-210v164q-22 -67 -104 -120.5t-173 -59.5q-27 -2 -53 -2q-176 0 -278 95q-118 109 -117 351z" />
<glyph unicode="v" horiz-adv-x="989" d="M0 1012h213l279 -707l278 707h211l-424 -1012h-129z" />
<glyph unicode="w" horiz-adv-x="1572" d="M20 1012h213l240 -707l211 623l27 84h151l29 -84l211 -623l239 707h211l-385 -1012h-129l-252 655l-249 -655h-129z" />
<glyph unicode="x" horiz-adv-x="993" d="M20 0l361 506l-361 506h242l227 -338l226 338h241l-358 -506l358 -506h-241l-226 338l-227 -338h-242z" />
<glyph unicode="y" horiz-adv-x="1042" d="M-61 -483l63 184q13 -11 36.5 -24t41.5 -17q32 -9 63 1t58 39.5t49.5 63t46 84t39 88t35.5 89.5q22 57 32 81l-383 906h213l279 -664l276 664h213q-256 -607 -426 -1012q-47 -112 -83.5 -188.5t-80 -149t-85 -115t-91.5 -67.5t-106 -25q-87 0 -190 62z" />
<glyph unicode="z" horiz-adv-x="972" d="M102 0v193l508 647h-508v172h727v-181l-510 -659h510v-172h-727z" />
<glyph unicode="{" horiz-adv-x="964" d="M164 664l4 106l-4 104q1 0 3.5 1.5t4.5 1.5q139 -6 201 53q32 29 47 82.5t16 95t0 129.5q0 154 15 238q23 146 116 239q135 135 398 129v-213q-175 3 -248 -67q-43 -43 -58 -125q-10 -59 -10 -199q0 -50 0.5 -98t-6.5 -99t-20 -96.5t-39.5 -90.5t-65.5 -81l-4 -4l4 -4 q39 -37 65.5 -82t39.5 -91t20 -97t6.5 -99t-0.5 -98q0 -140 10 -199q14 -78 58 -125q73 -70 248 -67v-213h-21q-242 0 -377 129q-93 93 -116 239q-15 84 -15 238q2 49 0.5 96t-6 85.5t-19 71.5t-38.5 54q-62 59 -201 56h-8z" />
<glyph unicode="}" horiz-adv-x="964" d="M0 -94q175 -3 248 67q43 45 57 125q10 59 10 199q0 50 -0.5 98t6.5 99t20 97t39.5 91t65.5 82q1 0 5 4q-1 0 -5 4q-39 36 -65.5 81t-39.5 90.5t-20 96.5t-6.5 99t0.5 98q0 140 -10 199q-15 83 -57 125q-73 70 -248 67v213q262 6 397 -129q94 -94 117 -239q14 -78 14 -238 q-2 -48 -0.5 -94.5t6 -85t19.5 -72t39 -55.5q63 -60 201 -54q2 0 4.5 -1t3.5 -1l-4 -104l4 -106h-8q-139 3 -201 -56q-24 -21 -39 -54t-19.5 -71.5t-6 -85.5t0.5 -96q0 -160 -14 -238q-23 -145 -117 -239q-135 -129 -377 -129h-20v213z" />
<glyph unicode="&#xa3;" horiz-adv-x="1144" d="M102 547v131h267q-9 27 -15 39q-86 206 -75 368t120 297q35 45 81.5 78.5t85 50.5t81.5 28t63.5 13.5t39.5 3.5q153 6 292 -86l-118 -178q-74 51 -166 51q-15 0 -40.5 -4.5t-73.5 -27.5t-79 -62q-34 -43 -49 -69.5t-20 -67.5q-21 -129 55 -313q27 -66 35 -121h356v-131 h-354q-5 -49 -29 -119q-34 -98 -133 -240h616v-188h-938q0 48 21.5 102t43.5 89t67 98q61 86 93.5 144t43.5 114h-271z" />
<glyph unicode="&#xa5;" horiz-adv-x="1329" d="M-61 1536h276l469 -717l471 717h277l-580 -848h315v-131h-368v-139h368v-131h-368v-287h-228v287h-376v131h376v139h-376v131h323z" />
<glyph unicode="&#xa8;" d="M227 1382q0 47 34 81t81 34q49 0 83 -33.5t34 -81.5q0 -49 -33.5 -82.5t-83.5 -33.5q-48 0 -81.5 33.5t-33.5 82.5zM565 1382q0 47 34 81t81 34q49 0 83 -33.5t34 -81.5q0 -49 -33.5 -82.5t-83.5 -33.5q-48 0 -81.5 33.5t-33.5 82.5z" />
<glyph unicode="&#xab;" horiz-adv-x="870" d="M102 1092q0 42 27 84l193 276h67l-74 -233q33 -18 53.5 -52t20.5 -75q0 -60 -41 -102t-100 -42q-61 0 -103.5 42t-42.5 102zM481 1092q0 42 27 84l192 276h68l-74 -233q33 -18 53.5 -52t20.5 -75q0 -60 -41 -102t-100 -42q-61 0 -103.5 42t-42.5 102z" />
<glyph unicode="&#xad;" horiz-adv-x="1097" d="M184 444v172h729v-172h-729z" />
<glyph unicode="&#xb0;" horiz-adv-x="647" d="M61 1264q0 113 76.5 192.5t184.5 79.5q109 0 185.5 -79t76.5 -193q0 -111 -77 -190t-185 -79q-107 0 -184 79.5t-77 189.5zM164 1264q0 -74 47.5 -129.5t110.5 -55.5q64 0 111.5 55.5t47.5 129.5q0 76 -47 132t-112 56q-63 0 -110.5 -56t-47.5 -132z" />
<glyph unicode="&#xb1;" d="M184 0v172h729v-172h-729zM184 561v172h279v279h172v-279h278v-172h-278v-278h-172v278h-279z" />
<glyph unicode="&#xb4;" d="M281 1196l178 340l198 -102l-200 -238h-176z" />
<glyph unicode="&#xb7;" horiz-adv-x="534" d="M123 125q0 59 41.5 100t101.5 41q61 0 103.5 -41t42.5 -100q0 -61 -42 -103t-104 -42q-60 0 -101.5 42t-41.5 103z" />
<glyph unicode="&#xb8;" horiz-adv-x="444" d="M55 -152l172 195l68 -63l-80 -80q71 -5 119.5 -58.5t48.5 -128.5q0 -77 -52.5 -131.5t-127.5 -54.5q-78 0 -131 59l90 117q16 -22 43 -22q22 0 37.5 18.5t15.5 44.5t-15.5 44.5t-37.5 18.5q-27 0 -43 -22z" />
<glyph unicode="&#xbb;" horiz-adv-x="868" d="M123 950l76 234q-35 19 -55.5 53t-20.5 76q0 59 41.5 100t99.5 41q61 0 103.5 -41t42.5 -100q0 -48 -25 -84l-192 -279h-70zM500 950l75 234q-75 42 -75 129q0 59 41 100t100 41q61 0 103 -41t42 -100q0 -49 -24 -84l-193 -279h-69z" />
<glyph unicode="&#xc0;" horiz-adv-x="1441" d="M20 0l631 1536h140l630 -1536h-245l-154 401h-604l-152 -401h-246zM414 1937l198 103l179 -340h-177zM489 590h461l-229 606z" />
<glyph unicode="&#xc1;" horiz-adv-x="1441" d="M20 0l631 1536h140l630 -1536h-245l-154 401h-604l-152 -401h-246zM489 590h461l-229 606zM653 1700l178 340l199 -103l-201 -237h-176z" />
<glyph unicode="&#xc2;" horiz-adv-x="1441" d="M20 0l631 1536h140l630 -1536h-245l-154 401h-604l-152 -401h-246zM387 1700l219 340h234l219 -340h-176l-160 196l-160 -196h-176zM489 590h461l-229 606z" />
<glyph unicode="&#xc4;" horiz-adv-x="1441" d="M20 0l631 1536h140l630 -1536h-245l-154 401h-604l-152 -401h-246zM438 1817q0 47 34 80.5t81 33.5q49 0 83 -33.5t34 -80.5q0 -49 -34 -83t-83 -34q-48 0 -81.5 34t-33.5 83zM489 590h461l-229 606zM776 1817q0 47 34 80.5t81 33.5q49 0 83 -33.5t34 -80.5 q0 -49 -34 -83t-83 -34q-48 0 -81.5 34t-33.5 83z" />
<glyph unicode="&#xc7;" horiz-adv-x="1574" d="M102 768q0 163 61.5 309.5t166.5 250.5t249 165t304 61q170 0 317 -59t252 -176l-149 -150q-62 91 -176 144t-244 53q-116 0 -219.5 -49.5t-176 -131.5t-115 -191t-42.5 -226q0 -109 39.5 -215.5t109 -192.5t175.5 -139t229 -53q118 0 220 43.5t197 150.5l150 -149 q-102 -113 -244.5 -171.5t-310.5 -61.5l-59 -60q71 -5 119.5 -58t48.5 -128q0 -77 -53 -132t-128 -55q-77 0 -131 60l90 117q16 -23 43 -23q22 0 38 18.5t16 44.5t-16 45t-38 19q-27 0 -43 -23l-106 64q2 2 104 117q-142 20 -267 87.5t-215.5 169t-143 238t-52.5 287.5z" />
<glyph unicode="&#xc8;" horiz-adv-x="1368" d="M143 0v1536h1022v-188h-794v-455h649v-191h-649v-514h833v-188h-1061zM410 1937l198 103l178 -340h-176z" />
<glyph unicode="&#xc9;" horiz-adv-x="1368" d="M143 0v1536h1022v-188h-794v-455h649v-191h-649v-514h833v-188h-1061zM592 1700l178 340l199 -103l-201 -237h-176z" />
<glyph unicode="&#xca;" horiz-adv-x="1368" d="M143 0v1536h1022v-188h-794v-455h649v-191h-649v-514h833v-188h-1061zM340 1700l219 340h234l219 -340h-176l-160 196l-160 -196h-176z" />
<glyph unicode="&#xcb;" horiz-adv-x="1368" d="M143 0v1536h1022v-188h-794v-455h649v-191h-649v-514h833v-188h-1061zM387 1817q0 47 34 80.5t81 33.5q49 0 82.5 -33t33.5 -81q0 -50 -33.5 -83.5t-82.5 -33.5q-48 0 -81.5 34t-33.5 83zM725 1817q0 47 34 80.5t81 33.5q49 0 82.5 -33t33.5 -81q0 -50 -33.5 -83.5 t-82.5 -33.5q-48 0 -81.5 34t-33.5 83z" />
<glyph unicode="&#xcc;" horiz-adv-x="786" d="M205 1937l198 103l179 -340h-176zM354 0h228v1536h-228v-1536z" />
<glyph unicode="&#xcd;" horiz-adv-x="786" d="M205 0h227v1536h-227v-1536zM205 1700l178 340l199 -103l-201 -237h-176z" />
<glyph unicode="&#xce;" horiz-adv-x="1081" d="M205 1700l219 340h233l220 -340h-177l-159 196l-160 -196h-176zM426 0h227v1536h-227v-1536z" />
<glyph unicode="&#xcf;" horiz-adv-x="978" d="M205 1817q0 47 33.5 80.5t80.5 33.5q49 0 83 -33.5t34 -80.5q0 -49 -34 -83t-83 -34q-47 0 -80.5 34t-33.5 83zM375 0v1536h227v-1536h-227zM543 1817q0 47 33.5 80.5t80.5 33.5q49 0 83 -33.5t34 -80.5q0 -49 -34 -83t-83 -34q-47 0 -80.5 34t-33.5 83z" />
<glyph unicode="&#xd2;" horiz-adv-x="1765" d="M102 768q0 164 62 310.5t167 250.5t249 164.5t303 60.5t303 -60.5t248.5 -164.5t166.5 -250.5t62 -310.5t-62 -310.5t-166.5 -251t-248.5 -165.5t-303 -61t-303 61t-249 165.5t-167 251t-62 310.5zM330 768q0 -157 69.5 -293.5t198 -221.5t285.5 -85q119 0 223.5 50 t176 132.5t112.5 191.5t41 226q0 116 -41.5 224.5t-113 191t-176 132.5t-222.5 50t-222.5 -50t-176 -132.5t-113 -191t-41.5 -224.5zM547 1937l198 103l179 -340h-176z" />
<glyph unicode="&#xd3;" horiz-adv-x="1765" d="M102 768q0 164 62 310.5t167 250.5t249 164.5t303 60.5t303 -60.5t248.5 -164.5t166.5 -250.5t62 -310.5t-62 -310.5t-166.5 -251t-248.5 -165.5t-303 -61t-303 61t-249 165.5t-167 251t-62 310.5zM330 768q0 -157 69.5 -293.5t198 -221.5t285.5 -85q119 0 223.5 50 t176 132.5t112.5 191.5t41 226q0 116 -41.5 224.5t-113 191t-176 132.5t-222.5 50t-222.5 -50t-176 -132.5t-113 -191t-41.5 -224.5zM858 1700l178 340l199 -103l-201 -237h-176z" />
<glyph unicode="&#xd4;" horiz-adv-x="1765" d="M102 768q0 164 62 310.5t167 250.5t249 164.5t303 60.5t303 -60.5t248.5 -164.5t166.5 -250.5t62 -310.5t-62 -310.5t-166.5 -251t-248.5 -165.5t-303 -61t-303 61t-249 165.5t-167 251t-62 310.5zM330 768q0 -157 69.5 -293.5t198 -221.5t285.5 -85q119 0 223.5 50 t176 132.5t112.5 191.5t41 226q0 116 -41.5 224.5t-113 191t-176 132.5t-222.5 50t-222.5 -50t-176 -132.5t-113 -191t-41.5 -224.5zM547 1700l219 340h233l220 -340h-177l-159 196l-160 -196h-176z" />
<glyph unicode="&#xd6;" horiz-adv-x="1765" d="M102 768q0 164 62 310.5t167 250.5t249 164.5t303 60.5t303 -60.5t248.5 -164.5t166.5 -250.5t62 -310.5t-62 -310.5t-166.5 -251t-248.5 -165.5t-303 -61t-303 61t-249 165.5t-167 251t-62 310.5zM330 768q0 -157 69.5 -293.5t198 -221.5t285.5 -85q119 0 223.5 50 t176 132.5t112.5 191.5t41 226q0 116 -41.5 224.5t-113 191t-176 132.5t-222.5 50t-222.5 -50t-176 -132.5t-113 -191t-41.5 -224.5zM594 1837q0 47 34 81t81 34q49 0 82.5 -33.5t33.5 -81.5q0 -50 -33.5 -83.5t-82.5 -33.5q-48 0 -81.5 34t-33.5 83zM932 1837q0 47 34 81 t81 34q49 0 82.5 -33.5t33.5 -81.5q0 -50 -33.5 -83.5t-82.5 -33.5q-48 0 -81.5 34t-33.5 83z" />
<glyph unicode="&#xd7;" horiz-adv-x="991" d="M166 309l199 197l-199 196l123 123l196 -196l197 196l123 -123l-199 -196l199 -197l-123 -121l-197 197l-196 -197z" />
<glyph unicode="&#xd9;" horiz-adv-x="1601" d="M184 602v934h228v-934q0 -26 2 -53.5t11 -72.5t24 -84t44.5 -81.5t69.5 -73t102 -50t138 -19.5t138 20t101.5 49.5t68.5 72.5t43.5 82t23.5 84.5t10.5 72t1.5 53.5v934h227v-934q0 -58 -6.5 -113t-25 -118.5t-47.5 -118t-77 -105.5t-110.5 -87.5t-151.5 -58t-196 -21.5 t-196.5 21.5t-152 58t-111.5 87.5t-78 105.5t-48 118t-26 119t-7 112.5zM561 1937l199 103l178 -340h-176z" />
<glyph unicode="&#xda;" horiz-adv-x="1601" d="M184 602v934h228v-934q0 -26 2 -53.5t11 -72.5t24 -84t44.5 -81.5t69.5 -73t102 -50t138 -19.5t138 20t101.5 49.5t68.5 72.5t43.5 82t23.5 84.5t10.5 72t1.5 53.5v934h227v-934q0 -58 -6.5 -113t-25 -118.5t-47.5 -118t-77 -105.5t-110.5 -87.5t-151.5 -58t-196 -21.5 t-196.5 21.5t-152 58t-111.5 87.5t-78 105.5t-48 118t-26 119t-7 112.5zM666 1700l178 340l198 -103l-200 -237h-176z" />
<glyph unicode="&#xdb;" horiz-adv-x="1601" d="M184 602v934h228v-934q0 -26 2 -53.5t11 -72.5t24 -84t44.5 -81.5t69.5 -73t102 -50t138 -19.5t138 20t101.5 49.5t68.5 72.5t43.5 82t23.5 84.5t10.5 72t1.5 53.5v934h227v-934q0 -58 -6.5 -113t-25 -118.5t-47.5 -118t-77 -105.5t-110.5 -87.5t-151.5 -58t-196 -21.5 t-196.5 21.5t-152 58t-111.5 87.5t-78 105.5t-48 118t-26 119t-7 112.5zM463 1700l219 340h233l220 -340h-177l-159 196l-160 -196h-176z" />
<glyph unicode="&#xdc;" horiz-adv-x="1601" d="M184 602v934h228v-934q0 -26 2 -53.5t11 -72.5t24 -84t44.5 -81.5t69.5 -73t102 -50t138 -19.5t138 20t101.5 49.5t68.5 72.5t43.5 82t23.5 84.5t10.5 72t1.5 53.5v934h227v-934q0 -58 -6.5 -113t-25 -118.5t-47.5 -118t-77 -105.5t-110.5 -87.5t-151.5 -58t-196 -21.5 t-196.5 21.5t-152 58t-111.5 87.5t-78 105.5t-48 118t-26 119t-7 112.5zM510 1817q0 47 34 80.5t81 33.5q49 0 82.5 -33t33.5 -81q0 -50 -33.5 -83.5t-82.5 -33.5q-48 0 -81.5 34t-33.5 83zM848 1817q0 47 34 80.5t81 33.5q49 0 82.5 -33t33.5 -81q0 -50 -33.5 -83.5 t-82.5 -33.5q-48 0 -81.5 34t-33.5 83z" />
<glyph unicode="&#xdd;" horiz-adv-x="1411" d="M-20 1536h276l469 -717l471 717h277l-633 -926v-610h-228v610zM625 1700l178 340l198 -103l-200 -237h-176z" />
<glyph unicode="&#xe0;" horiz-adv-x="1105" d="M82 297q0 91 32 159t87 107t121 57.5t143 18.5h287v68q0 151 -197 151q-71 0 -135 -35t-107 -96l-145 131q74 82 174 128t213 46q104 0 185.5 -29t128.5 -77.5t70.5 -104t23.5 -114.5v-707h-211v111q-50 -68 -131 -98.5t-156 -30.5q-171 0 -277 89t-106 226zM279 1434 l198 102l178 -340h-176zM295 289q17 -135 199 -135q133 0 195.5 49t62.5 112v152h-258q-97 0 -153 -47t-46 -131z" />
<glyph unicode="&#xe1;" horiz-adv-x="1105" d="M82 297q0 91 32 159t87 107t121 57.5t143 18.5h287v68q0 151 -197 151q-71 0 -135 -35t-107 -96l-145 131q74 82 174 128t213 46q104 0 185.5 -29t128.5 -77.5t70.5 -104t23.5 -114.5v-707h-211v111q-50 -68 -131 -98.5t-156 -30.5q-171 0 -277 89t-106 226zM295 289 q17 -135 199 -135q133 0 195.5 49t62.5 112v152h-258q-97 0 -153 -47t-46 -131zM500 1196l178 340l199 -102l-201 -238h-176z" />
<glyph unicode="&#xe2;" horiz-adv-x="1105" d="M82 297q0 91 32 159t87 107t121 57.5t143 18.5h287v68q0 151 -197 151q-71 0 -135 -35t-107 -96l-145 131q74 82 174 128t213 46q104 0 185.5 -29t128.5 -77.5t70.5 -104t23.5 -114.5v-707h-211v111q-50 -68 -131 -98.5t-156 -30.5q-171 0 -277 89t-106 226zM219 1196 l219 340h234l219 -340h-176l-160 197l-160 -197h-176zM295 289q17 -135 199 -135q133 0 195.5 49t62.5 112v152h-258q-97 0 -153 -47t-46 -131z" />
<glyph unicode="&#xe4;" horiz-adv-x="1105" d="M82 297q0 91 32 159t87 107t121 57.5t143 18.5h287v68q0 151 -197 151q-71 0 -135 -35t-107 -96l-145 131q74 82 174 128t213 46q104 0 185.5 -29t128.5 -77.5t70.5 -104t23.5 -114.5v-707h-211v111q-50 -68 -131 -98.5t-156 -30.5q-171 0 -277 89t-106 226zM264 1382 q0 47 34 81t81 34q49 0 83 -33.5t34 -81.5q0 -49 -33.5 -82.5t-83.5 -33.5q-48 0 -81.5 33.5t-33.5 82.5zM295 289q17 -135 199 -135q133 0 195.5 49t62.5 112v152h-258q-97 0 -153 -47t-46 -131zM602 1382q0 47 34 81t81 34q49 0 83 -33.5t34 -81.5q0 -49 -33.5 -82.5 t-83.5 -33.5q-48 0 -81.5 33.5t-33.5 82.5z" />
<glyph unicode="&#xe7;" horiz-adv-x="1077" d="M82 504q0 148 70.5 269t191 189t264.5 68q248 0 387 -153l-145 -132q-82 111 -242 111q-132 0 -223.5 -99.5t-91.5 -252.5q0 -152 91.5 -252t223.5 -100q161 0 242 112l145 -131q-129 -143 -368 -153l-60 -60q71 -5 119.5 -58t48.5 -128q0 -77 -52.5 -132t-127.5 -55 q-77 0 -131 60l90 117q16 -23 43 -23q22 0 37.5 18.5t15.5 44.5t-15.5 45t-37.5 19q-27 0 -43 -23l-106 64l16 19q16 18 42 47.5t48 52.5q-188 36 -310 177.5t-122 338.5z" />
<glyph unicode="&#xe8;" horiz-adv-x="1159" d="M61 504q0 230 138.5 378t369.5 148q428 0 500 -428q8 -44 8 -98v-76h-796q0 -54 19.5 -100t51.5 -77.5t72.5 -54.5t83 -33.5t82.5 -10.5q73 0 145.5 36.5t114.5 96.5l145 -131q-59 -80 -153.5 -127t-251.5 -47q-242 0 -385.5 147t-143.5 377zM258 1434l199 102l178 -340 h-176zM285 602h571q0 119 -82.5 186.5t-204.5 67.5q-119 0 -201.5 -71.5t-82.5 -182.5z" />
<glyph unicode="&#xe9;" horiz-adv-x="1159" d="M61 504q0 230 138.5 378t369.5 148q428 0 500 -428q8 -44 8 -98v-76h-796q0 -54 19.5 -100t51.5 -77.5t72.5 -54.5t83 -33.5t82.5 -10.5q73 0 145.5 36.5t114.5 96.5l145 -131q-59 -80 -153.5 -127t-251.5 -47q-242 0 -385.5 147t-143.5 377zM285 602h571 q0 119 -82.5 186.5t-204.5 67.5q-119 0 -201.5 -71.5t-82.5 -182.5zM500 1196l178 340l199 -102l-201 -238h-176z" />
<glyph unicode="&#xea;" horiz-adv-x="1159" d="M61 504q0 230 138.5 378t369.5 148q428 0 500 -428q8 -44 8 -98v-76h-796q0 -54 19.5 -100t51.5 -77.5t72.5 -54.5t83 -33.5t82.5 -10.5q73 0 145.5 36.5t114.5 96.5l145 -131q-59 -80 -153.5 -127t-251.5 -47q-242 0 -385.5 147t-143.5 377zM236 1196l219 340h233 l219 -340h-176l-160 197l-159 -197h-176zM285 602h571q0 119 -82.5 186.5t-204.5 67.5q-119 0 -201.5 -71.5t-82.5 -182.5z" />
<glyph unicode="&#xeb;" horiz-adv-x="1159" d="M61 504q0 230 138.5 378t369.5 148q428 0 500 -428q8 -44 8 -98v-76h-796q0 -54 19.5 -100t51.5 -77.5t72.5 -54.5t83 -33.5t82.5 -10.5q73 0 145.5 36.5t114.5 96.5l145 -131q-59 -80 -153.5 -127t-251.5 -47q-242 0 -385.5 147t-143.5 377zM266 1382q0 47 34 81t81 34 q49 0 83 -33.5t34 -81.5q0 -49 -33.5 -82.5t-83.5 -33.5q-48 0 -81.5 33.5t-33.5 82.5zM285 602h571q0 119 -82.5 186.5t-204.5 67.5q-119 0 -201.5 -71.5t-82.5 -182.5zM604 1382q0 47 34 81t81 34q49 0 83 -33.5t34 -81.5q0 -49 -33.5 -82.5t-83.5 -33.5q-48 0 -81.5 33.5 t-33.5 82.5z" />
<glyph unicode="&#xec;" horiz-adv-x="686" d="M143 1434l199 102l178 -340h-176zM311 0h211v1012h-211v-1012z" />
<glyph unicode="&#xed;" horiz-adv-x="684" d="M143 0h211v1012h-211v-1012zM143 1196l179 340l198 -102l-201 -238h-176z" />
<glyph unicode="&#xee;" horiz-adv-x="978" d="M143 1196l219 340h234l219 -340h-176l-160 197l-160 -197h-176zM373 0h211v1012h-211v-1012z" />
<glyph unicode="&#xef;" horiz-adv-x="876" d="M143 1382q0 47 34 81t81 34q49 0 83 -33.5t34 -81.5q0 -49 -33.5 -82.5t-83.5 -33.5q-48 0 -81.5 33.5t-33.5 82.5zM301 0v1012h211v-1012h-211zM481 1382q0 47 34 81t81 34q49 0 83 -33.5t34 -81.5q0 -49 -33.5 -82.5t-83.5 -33.5q-48 0 -81.5 33.5t-33.5 82.5z" />
<glyph unicode="&#xf2;" horiz-adv-x="1236" d="M82 504q0 148 70.5 269t191 189t264.5 68t264.5 -68t191.5 -189t71 -269q0 -147 -71 -268t-191.5 -188.5t-264.5 -67.5t-264.5 67.5t-191 188t-70.5 268.5zM293 504q0 -152 91.5 -252t223.5 -100t224 100t92 252q0 153 -91.5 252.5t-224.5 99.5q-132 0 -223.5 -99.5 t-91.5 -252.5zM352 1434l199 102l178 -340h-176z" />
<glyph unicode="&#xf3;" horiz-adv-x="1236" d="M82 504q0 148 70.5 269t191 189t264.5 68t264.5 -68t191.5 -189t71 -269q0 -147 -71 -268t-191.5 -188.5t-264.5 -67.5t-264.5 67.5t-191 188t-70.5 268.5zM293 504q0 -152 91.5 -252t223.5 -100t224 100t92 252q0 153 -91.5 252.5t-224.5 99.5q-132 0 -223.5 -99.5 t-91.5 -252.5zM541 1196l178 340l199 -102l-201 -238h-176z" />
<glyph unicode="&#xf4;" horiz-adv-x="1236" d="M82 504q0 148 70.5 269t191 189t264.5 68t264.5 -68t191.5 -189t71 -269q0 -147 -71 -268t-191.5 -188.5t-264.5 -67.5t-264.5 67.5t-191 188t-70.5 268.5zM276 1196l220 340h233l219 -340h-176l-160 197l-159 -197h-177zM293 504q0 -152 91.5 -252t223.5 -100t224 100 t92 252q0 153 -91.5 252.5t-224.5 99.5q-132 0 -223.5 -99.5t-91.5 -252.5z" />
<glyph unicode="&#xf6;" horiz-adv-x="1236" d="M82 504q0 148 70.5 269t191 189t264.5 68t264.5 -68t191.5 -189t71 -269q0 -147 -71 -268t-191.5 -188.5t-264.5 -67.5t-264.5 67.5t-191 188t-70.5 268.5zM293 504q0 -152 91.5 -252t223.5 -100t224 100t92 252q0 153 -91.5 252.5t-224.5 99.5q-132 0 -223.5 -99.5 t-91.5 -252.5zM322 1382q0 47 33.5 81t80.5 34q49 0 83 -33.5t34 -81.5q0 -49 -33.5 -82.5t-83.5 -33.5q-48 0 -81 33.5t-33 82.5zM659 1382q0 47 34 81t81 34q49 0 83 -33.5t34 -81.5q0 -49 -33.5 -82.5t-83.5 -33.5q-48 0 -81.5 33.5t-33.5 82.5z" />
<glyph unicode="&#xf9;" horiz-adv-x="1243" d="M143 428v584h211v-563q0 -156 54.5 -225.5t183.5 -69.5q141 0 208.5 86t67.5 229v543h211v-1012h-211v164q-22 -67 -103.5 -120.5t-172.5 -59.5q-213 -16 -331 93t-118 351zM348 1434l199 102l178 -340h-176z" />
<glyph unicode="&#xfa;" horiz-adv-x="1243" d="M143 428v584h211v-563q0 -156 54.5 -225.5t183.5 -69.5q141 0 208.5 86t67.5 229v543h211v-1012h-211v164q-22 -67 -103.5 -120.5t-172.5 -59.5q-213 -16 -331 93t-118 351zM520 1196l178 340l199 -102l-201 -238h-176z" />
<glyph unicode="&#xfb;" horiz-adv-x="1243" d="M143 428v584h211v-563q0 -156 54.5 -225.5t183.5 -69.5q141 0 208.5 86t67.5 229v543h211v-1012h-211v164q-22 -67 -103.5 -120.5t-172.5 -59.5q-213 -16 -331 93t-118 351zM274 1196l220 340h233l219 -340h-176l-160 197l-159 -197h-177z" />
<glyph unicode="&#xfc;" horiz-adv-x="1243" d="M143 428v584h211v-563q0 -156 54.5 -225.5t183.5 -69.5q141 0 208.5 86t67.5 229v543h211v-1012h-211v164q-22 -67 -103.5 -120.5t-172.5 -59.5q-213 -16 -331 93t-118 351zM324 1374q0 47 33.5 81t80.5 34q49 0 83 -33.5t34 -81.5q0 -50 -33.5 -83.5t-83.5 -33.5 q-47 0 -80.5 34t-33.5 83zM662 1374q0 47 33.5 81t80.5 34q49 0 83 -33.5t34 -81.5q0 -50 -33.5 -83.5t-83.5 -33.5q-47 0 -80.5 34t-33.5 83z" />
<glyph unicode="&#xfd;" horiz-adv-x="1042" d="M-61 -483l63 184q13 -11 36.5 -24t41.5 -17q32 -9 63 1t58 39.5t49.5 63t46 84t39 88t35.5 89.5q22 57 32 81l-383 906h213l279 -664l276 664h213q-256 -607 -426 -1012q-47 -112 -83.5 -188.5t-80 -149t-85 -115t-91.5 -67.5t-106 -25q-87 0 -190 62zM416 1196l178 340 l199 -102l-201 -238h-176z" />
<glyph unicode="&#xff;" horiz-adv-x="1042" d="M-61 -483l63 184q13 -11 36.5 -24t41.5 -17q32 -9 63 1t58 39.5t49.5 63t46 84t39 88t35.5 89.5q22 57 32 81l-383 906h213l279 -664l276 664h213q-256 -607 -426 -1012q-47 -112 -83.5 -188.5t-80 -149t-85 -115t-91.5 -67.5t-106 -25q-87 0 -190 62zM229 1374 q0 47 34 81t81 34q49 0 83 -33.5t34 -81.5q0 -50 -33.5 -83.5t-83.5 -33.5q-48 0 -81.5 34t-33.5 83zM567 1374q0 47 34 81t81 34q49 0 83 -33.5t34 -81.5q0 -50 -33.5 -83.5t-83.5 -33.5q-48 0 -81.5 34t-33.5 83z" />
<glyph unicode="&#x178;" horiz-adv-x="1411" d="M-20 1536h276l469 -717l471 717h277l-633 -926v-610h-228v610zM440 1819q0 47 34 80.5t81 33.5q49 0 83 -33.5t34 -80.5q0 -49 -34 -83t-83 -34q-48 0 -81.5 34t-33.5 83zM778 1819q0 47 34 80.5t81 33.5q49 0 83 -33.5t34 -80.5q0 -49 -34 -83t-83 -34q-48 0 -81.5 34 t-33.5 83z" />
<glyph unicode="&#x2000;" horiz-adv-x="1020" />
<glyph unicode="&#x2001;" horiz-adv-x="2040" />
<glyph unicode="&#x2002;" horiz-adv-x="1020" />
<glyph unicode="&#x2003;" horiz-adv-x="2040" />
<glyph unicode="&#x2004;" horiz-adv-x="680" />
<glyph unicode="&#x2005;" horiz-adv-x="510" />
<glyph unicode="&#x2006;" horiz-adv-x="340" />
<glyph unicode="&#x2007;" horiz-adv-x="340" />
<glyph unicode="&#x2008;" horiz-adv-x="255" />
<glyph unicode="&#x2009;" horiz-adv-x="408" />
<glyph unicode="&#x200a;" horiz-adv-x="113" />
<glyph unicode="&#x2010;" horiz-adv-x="1097" d="M184 444v172h729v-172h-729z" />
<glyph unicode="&#x2011;" horiz-adv-x="1097" d="M184 444v172h729v-172h-729z" />
<glyph unicode="&#x2012;" horiz-adv-x="1097" d="M184 444v172h729v-172h-729z" />
<glyph unicode="&#x2013;" horiz-adv-x="1705" />
<glyph unicode="&#x2014;" horiz-adv-x="2416" d="M184 444v172h2048v-172h-2048z" />
<glyph unicode="&#x2018;" horiz-adv-x="471" d="M102 1092q0 42 27 84l193 276h67l-74 -233q33 -18 53.5 -52t20.5 -75q0 -60 -41 -102t-100 -42q-61 0 -103.5 42t-42.5 102z" />
<glyph unicode="&#x2019;" horiz-adv-x="512" d="M123 950l76 234q-35 19 -55.5 53t-20.5 76q0 59 41.5 100t99.5 41q61 0 103.5 -41t42.5 -100q0 -48 -25 -84l-192 -279h-70z" />
<glyph unicode="&#x201c;" horiz-adv-x="874" d="M102 1092q0 42 27 84l193 276h67l-74 -233q33 -18 53.5 -52t20.5 -75q0 -60 -41 -102t-100 -42q-61 0 -103.5 42t-42.5 102zM481 1092q0 42 27 84l192 276h68l-74 -233q33 -18 53.5 -52t20.5 -75q0 -60 -41 -102t-100 -42q-61 0 -103.5 42t-42.5 102z" />
<glyph unicode="&#x201d;" horiz-adv-x="866" d="M123 950l76 234q-35 19 -55.5 53t-20.5 76q0 59 41.5 100t99.5 41q61 0 103.5 -41t42.5 -100q0 -48 -25 -84l-192 -279h-70zM500 950l75 234q-75 42 -75 129q0 59 41 100t100 41q61 0 103 -41t42 -100q0 -49 -24 -84l-193 -279h-69z" />
<glyph unicode="&#x2022;" horiz-adv-x="616" d="M143 762q0 59 42 100t102 41q61 0 103 -41t42 -100q0 -62 -42 -104t-103 -42q-60 0 -102 42.5t-42 103.5z" />
<glyph unicode="&#x2026;" horiz-adv-x="1603" d="M123 125q0 59 41.5 100t101.5 41q61 0 103.5 -41t42.5 -100q0 -61 -42 -103t-104 -42q-60 0 -101.5 42t-41.5 103zM575 125q0 59 42 100t102 41q61 0 103 -41t42 -100q0 -61 -42 -103t-103 -42q-60 0 -102 42t-42 103zM1028 125q0 59 41.5 100t101.5 41q61 0 103.5 -41 t42.5 -100q0 -61 -42 -103t-104 -42q-60 0 -101.5 42t-41.5 103z" />
<glyph unicode="&#x202f;" horiz-adv-x="408" />
<glyph unicode="&#x205f;" horiz-adv-x="510" />
<glyph unicode="&#x20ac;" horiz-adv-x="1654" d="M119 453v131h125q-19 84 -21 143h-104v131h108q21 198 129 357t278.5 249t369.5 90q170 0 317 -59t252 -176l-150 -150q-63 92 -176 144.5t-243 52.5q-211 0 -363.5 -145.5t-183.5 -362.5h635v-131h-641q7 -89 24 -143h617v-131h-566q68 -128 195 -206.5t283 -78.5 q118 0 220 43.5t197 150.5l150 -149q-104 -115 -250.5 -174t-316.5 -59q-243 0 -436.5 127.5t-282.5 345.5h-166z" />
<glyph unicode="&#x25fc;" horiz-adv-x="1013" d="M0 0v1014h1014v-1014h-1014z" />
</font>
</defs>
</svg>
